#TITLE:Frozen Ray;
#SUBTITLE:~Paradox re-edit~;
#ARTIST:dj TAKA;
#TITLETRANSLIT:;
#SUBTITLETRANSLIT:;
#ARTISTTRANSLIT:;
#CREDIT:;
#BANNER:Frozen Ray (for EXTREME).JPG;
#BACKGROUND:Frozen Ray (for EXTREME)-bg.png;
#LYRICSPATH:;
#CDTITLE:Prdx.png;
#MUSIC:Frozen Ray (for EXTREME).mp3;
#OFFSET:-0.263;
#SAMPLESTART:24.850;
#SAMPLELENGTH:12.000;
#SELECTABLE:YES;
#BPMS:0.000=155.850;
#STOPS:;
#BGCHANGES:;
// cache tags:
#FIRSTBEAT:16.000;
#LASTBEAT:271.000;
#SONGFILENAME:Songs/Chilean Keyboard Megapack 3/(Paradox) Frozen Ray/Frozen Ray (for EXTREME).sm;
#HASMUSIC:1;
#HASBANNER:1;
#MUSICLENGTH:106.344;
// end cache tags

//---------------dance-single - ----------------
#NOTES:
     dance-single:
     :
     Challenge:
     14:
     1.000,1.000,1.000,0.094,1.000,698.000,204.000,10.000,0.000,1.000:
0000
0000
0000
0000
,
0000
0000
0000
0000
,
0000
0000
0000
0000
,
0000
0000
0000
0000
,
0001
0000
0000
0010
0000
0000
1000
0000
,
0001
0000
0100
0000
0000
1000
0000
0001
,
0001
0000
0000
0000
,
0000
0001
1000
0001
1000
0001
1000
0001
,
1001
0110
1100
0011
,
1001
0000
0101
0000
0110
0000
1100
0110
,
0011
1100
1001
0101
,
1010
0000
0101
0000
0110
0000
0101
1010
,
1100
0110
0011
1001
,
0101
0000
1010
0000
0110
0000
0101
0101
,
1010
1010
0000
0000
0000
0000
0000
0000
,
0011
0011
0000
0000
0000
0000
0000
0000
,
1000
0100
0010
0001
0100
0010
1000
1000
0100
0010
0100
1000
0001
0100
0010
1000
,
0100
0010
0001
0100
0010
0100
0001
1000
0100
0010
0100
0010
0100
1000
0001
0100
,
0010
1000
0010
0100
0001
1000
0100
0010
0001
1000
0010
0100
0001
0100
0010
1000
,
0010
1000
1000
0100
0010
0001
1000
0010
0001
1000
0001
0010
0100
1000
0010
0100
,
0001
0010
1000
0100
0010
0001
0010
0100
0001
1000
0100
0010
0001
0100
1000
0010
,
0001
0100
1000
0010
1000
0100
0001
1000
0010
0100
0001
1000
0100
0010
0001
1000
,
0010
0100
0010
1000
0100
0010
0001
0010
0100
1000
0100
0010
0001
0010
0100
1000
,
0100
0010
0001
0010
0001
0100
0010
0100
1000
0010
0100
0001
0010
1000
0100
0001
,
0010
0100
0001
1000
0010
0001
0010
0100
1000
0100
0010
0001
0010
1000
0100
0010
,
0001
1000
0001
0100
0010
0100
0010
1000
0001
0100
0010
0100
0001
0010
0100
1000
,
0010
1000
0001
1000
0100
0010
0001
0100
0010
0100
0001
1000
0001
0010
0100
1000
,
0010
0100
0001
0010
0100
1000
0001
0100
0010
0100
0010
1000
0001
0100
0010
0100
,
0001
0010
0100
1000
0010
0100
0001
1000
0010
1000
0001
0010
0100
1000
0010
1000
,
0001
0100
0010
1000
0100
1000
0010
0001
0100
1000
0001
0100
0010
0001
0100
1000
,
0001
0010
1000
0010
0001
0100
0010
1000
0001
0100
0010
0100
0010
0001
1000
0001
,
0100
0010
0010
1000
0100
0010
1000
0000
0000
0000
1001
0000
1100
0000
0011
0000
,
0000
1001
0110
1100
0000
1100
1001
1100
,
0000
0011
0110
1001
0000
0110
1100
0110
,
0000
1001
0110
1001
0000
1010
0101
0110
,
0000
1001
0110
1001
0000
0011
1100
0011
,
0000
0000
0001
1000
0100
0010
0101
1000
0100
0010
0100
1000
0010
0001
0100
0001
,
0010
0101
1000
0100
0010
0001
1000
0010
0100
0001
0010
0100
0011
1000
0010
0100
,
0010
0100
0001
1000
0100
0010
0001
1000
0101
1000
0100
0010
0001
1000
0010
1000
,
0010
0100
0001
0100
1000
0011
1000
0001
0010
0001
0010
0100
1000
0001
0010
0000
,
0000
1010
0101
1100
0000
1100
0011
0110
,
0000
1100
0011
1001
0000
1010
1001
0110
,
0000
1001
0110
1100
0000
0110
0011
0110
,
0000
1010
0110
1001
0000
0110
1001
0110
,
0000
0000
0001
1000
0010
0100
0001
1000
0100
0001
0010
0100
1000
0000
0010
0000
,
0000
1002
0010
0103
0000
0210
0001
0310
,
0000
0102
0010
1003
0000
1020
0100
1030
,
0000
2001
0010
3001
0000
1200
1000
0301
,
0000
0000
0000
0000
1000
1001
0100
0010
1000
0100
0010
1001
0100
0001
0010
0100
,
1000
0001
0110
0100
0001
1000
0100
0010
0101
1000
0010
0100
0010
1001
0010
0100
,
1000
0001
0101
0010
1000
0001
0010
0100
0101
1000
0100
1000
1001
0010
0100
0001
,
0010
0001
1100
0001
0010
0100
1000
0011
1000
0100
0001
1000
0110
0001
0010
0100
,
1000
0001
1100
0010
1000
0001
1100
0010
0001
1000
0100
0010
0101
0010
0001
0010
,
0100
1000
0110
0010
0001
1000
0100
0010
0101
1000
0100
0010
0001
0101
0010
1000
,
0100
0010
0101
0010
0001
0100
1010
1000
0100
0010
0001
0100
1010
0100
0010
1000
,
0010
1000
0101
0100
0010
0100
0011
1000
0100
0010
0001
0010
0101
1000
0100
0010
,
0010
1001
0100
0010
1001
0010
1100
0101
1000
0011
0100
1011
0010
0101
0010
1010
,
0101
1001
0001
0110
0100
1001
0110
1100
0100
1001
0110
1001
0100
0011
0101
1010
,
0001
1100
0010
0101
1010
0011
0100
0001
1010
0101
1010
1001
0100
1010
0011
1100
,
0001
1010
1001
0110
0001
1010
0001
1100
0110
0001
1000
0110
0001
1001
0110
0001
,
0110
1001
0101
0010
0101
1001
0110
0010
1100
0011
0100
1010
0101
1010
0100
0011
,
1000
0110
0011
1001
0001
0110
0010
1001
1100
0110
0010
1010
0101
0110
0010
1001
,
1000
0101
0010
1100
1001
1010
0110
1000
0011
0101
1000
0110
1001
1010
0010
1001
,
0101
0010
1001
0110
0101
1010
1000
0101
0110
1001
0100
1010
0101
0010
1000
0000
,
0012
0000
1000
1000
0000
0000
0003
0000
,
2010
0000
0001
0001
0000
0100
3000
0000
,
0110
0000
1000
0100
0000
0001
0000
0000
,
2002
0000
0000
3003
;
